<?xml version="1.0" standalone="no"?> <!DOCTYPE svg PUBLIC "-//W3C//DTD SVG 1.0//EN" "http://www.w3.org/TR/2001/REC-SVG-20010904/DTD/svg10.dtd" > <svg xmlns="http://www.w3.org/2000/svg" width="100%" height="100%">
<defs >
<font id="myriadprosemiboldcond" horiz-adv-x="673" ><font-face
    font-family="Myriad Pro Light Cond"
    units-per-em="2048"
    panose-1="2 11 6 6 3 4 3 2 2 4"
    ascent="1536"
    descent="-512"
    alphabetic="0" />
<missing-glyph horiz-adv-x="1024" d="M0 0V1434H1024V0H0ZM512 809L860 1331H164L512 809ZM573 717L922 195V1239L573 717ZM164 102H860L512 625L164 102ZM102 1239V195L451 717L102 1239Z" />
<glyph unicode=" " glyph-name="space" horiz-adv-x="323" />
<glyph unicode="!" glyph-name="exclam" horiz-adv-x="454" d="M319 420H135L106 1380H348L319 420ZM229 -16H227Q172 -16 135 23T98 123Q98 186 135 226T227 266Q284 266 320 227T356 123Q356 62 322 23T229 -16Z" />
<glyph unicode="&quot;" glyph-name="quotedbl" horiz-adv-x="657" d="M82 1401H268L231 893H119L82 1401ZM391 1401H578L541 893H428L391 1401Z" />
<glyph unicode="#" glyph-name="numbersign" horiz-adv-x="835" d="M326 537H477L510 807H358L326 537ZM256 0H125L178 403H37V537H195L229 807H80V938H246L295 1331H426L375 938H528L578 1331H709L657 938H797V807H641L608 537H756V406H590L539 0H408L459 406H307L256
0Z" />
<glyph unicode="$" glyph-name="dollar" horiz-adv-x="835" d="M479 -172H332V35Q209 38 111 94L150 266Q249 205 358 205Q437 205 481 252T526 373Q526 445 486 500T360 606Q239 682 177 761T115 954Q115 1072 180 1159T352 1280V1485H500V1298Q618 1295 698
1245L655 1079Q568 1128 479 1128Q406 1128 363 1085T319 979Q319 911 355 868T498 762Q621 689 676 600T731 395Q731 258 662 168T479 49V-172Z" />
<glyph unicode="%" glyph-name="percent" horiz-adv-x="1335" d="M311 1348H313Q397 1348 456 1290T541 1143T567 944Q567 747 492 642T309 537Q228 537 168 591T79 736T49 938Q49 1116 121 1232T311 1348ZM309 1225H307Q203 1225 203 942Q199 659 309 659Q414
659 414 940Q414 1225 309 1225ZM371 -23H250L963 1354H1083L371 -23ZM1030 799H1032Q1116 799 1175 741T1260 595T1286 397Q1286 199 1211 94T1028 -12Q947 -12 887 42T798 187T768 389Q768 567 840 683T1030 799ZM1028 676H1026Q922 676 922 393Q920 268 946
190T1028 111Q1133 111 1133 391Q1133 676 1028 676Z" />
<glyph unicode="&amp;" glyph-name="ampersand" horiz-adv-x="1048" d="M1028 0H788Q715 103 711 109Q654 49 576 17T412 -16Q299 -16 215 38T90 178T49 369Q49 602 262 754V760Q162 908 162 1063Q162 1202 248 1299T477 1397Q596 1397 675 1317T754 1100Q754
994 702 907T516 727V717Q635 527 745 381Q808 504 817 737H1006Q993 596 951 465T842 244L1028 0ZM449 150H451Q557 150 621 240Q509 385 350 625Q252 529 252 393Q252 292 305 221T449 150ZM467 1245H465Q413 1245 385 1197T356 1073Q356 958 428 846Q567 953
567 1090Q567 1153 544 1199T467 1245Z" />
<glyph unicode="&apos;" glyph-name="quotesingle" horiz-adv-x="348" d="M82 1401H268L231 893H119L82 1401Z" />
<glyph unicode="(" glyph-name="parenleft" horiz-adv-x="524" d="M319 1417H481Q266 1076 266 584Q266 104 481 -246H319Q222 -111 156 100T90 584Q94 861 159 1072T319 1417Z" />
<glyph unicode=")" glyph-name="parenright" horiz-adv-x="524" d="M205 -246H43Q258 98 258 590Q258 1075 43 1417H205Q302 1284 368 1075T434 588Q430 310 365 101T205 -246Z" />
<glyph unicode="*" glyph-name="asterisk" horiz-adv-x="776" d="M502 1397L643 1317L453 1075L455 1069L737 1114V954L455 999L451 993L645 760L498 678L385 963L381 956L260 674L129 758L319 1001L315 1004L39 954V1114L313 1071L317 1075L131 1313L270 1393L385
1116H391L502 1397Z" />
<glyph unicode="+" glyph-name="plus" horiz-adv-x="1220" d="M537 1090H684V618H1139V475H684V0H537V475H82V618H537V1090Z" />
<glyph unicode="," glyph-name="comma" horiz-adv-x="442" d="M172 -240L29 -256Q68 -144 104 1T158 258L387 279Q343 138 284 -7T172 -240Z" />
<glyph unicode="-" glyph-name="hyphen" horiz-adv-x="548" d="M61 631H487V471H61V631Z" />
<glyph unicode="." glyph-name="period" horiz-adv-x="442" d="M233 -16H231Q176 -16 138 26T100 135Q100 200 139 243T233 287Q291 287 329 246T367 135T330 25T233 -16Z" />
<glyph unicode="/" glyph-name="slash" horiz-adv-x="573" d="M131 -82H-18L444 1397H594L131 -82Z" />
<glyph unicode="0" glyph-name="zero" horiz-adv-x="835" d="M416 -16H414Q322 -16 252 35T138 178T73 392T51 662Q51 980 148 1164T428 1348Q524 1348 595 1295T706 1145T765 932T784 670Q784 326 682 155T416 -16ZM422 170H424Q565 170 565 666Q565 1161 422
1161Q267 1161 270 666Q267 170 422 170Z" />
<glyph unicode="1" glyph-name="one" horiz-adv-x="835" d="M375 0V1120H371L147 999L109 1169L401 1331H590V0H375Z" />
<glyph unicode="2" glyph-name="two" horiz-adv-x="835" d="M743 0H57V145L180 307Q247 395 280 440T365 565T442 699T488 823T508 956Q508 1052 462 1107T330 1163Q289 1163 247 1150T184 1125T133 1094L90 1262Q137 1296 211 1322T369 1348Q463 1348 533 1317T644
1233T703 1114T723 971Q723 882 698 793T621 615T524 460T406 303L322 197V193H743V0Z" />
<glyph unicode="3" glyph-name="three" horiz-adv-x="835" d="M53 45L90 217Q176 164 285 164Q385 164 442 225T500 389Q500 505 428 567T242 629H205V791H231Q285 791 335 809T424 875T463 991Q463 1074 419 1120T299 1167Q216 1167 133 1110L96 1274Q139 1305
209 1326T354 1348Q509 1348 595 1258T682 1034Q682 933 631 853T487 729V725Q588 693 653 605T719 381Q719 302 691 231T611 104T479 17T301 -16Q151 -16 53 45Z" />
<glyph unicode="4" glyph-name="four" horiz-adv-x="835" d="M674 0H479V340H29V489L463 1331H674V516H811V340H674V0ZM221 516H479V836Q479 928 492 1073H485Q449 986 383 846L221 520V516Z" />
<glyph unicode="5" glyph-name="five" horiz-adv-x="835" d="M717 1331V1141H362L322 850Q336 852 367 852Q423 850 495 825T618 752Q731 642 731 446Q731 246 612 115T295 -16Q229 -16 162 -1T55 39L94 213Q182 164 283 164Q386 164 451 233T516 426Q516 564
435 628T221 692Q164 692 123 686L201 1331H717Z" />
<glyph unicode="6" glyph-name="six" horiz-adv-x="835" d="M692 1348V1167Q648 1167 590 1155Q519 1138 463 1098T369 1000T309 879T272 743H279Q365 858 494 858Q626 858 707 747T788 449Q788 356 766 274T701 126T589 22T432 -16Q253 -16 153 134T53 530Q53
906 250 1141Q311 1215 398 1265T575 1333Q623 1342 692 1348ZM430 145H432Q498 145 534 222T571 442Q569 560 531 629T422 698Q380 698 344 670T285 586Q272 554 272 485Q272 324 315 235T430 145Z" />
<glyph unicode="7" glyph-name="seven" horiz-adv-x="835" d="M78 1331H766V1192L342 0H129L543 1135V1139H78V1331Z" />
<glyph unicode="8" glyph-name="eight" horiz-adv-x="835" d="M434 1348H436Q577 1348 665 1255T754 1026Q754 943 712 863T575 723V717Q672 659 728 569T784 362Q784 193 679 89T412 -16Q247 -16 148 84T49 336Q49 458 107 550T258 702L256 707Q175 762 132 842T88
1006Q88 1161 188 1254T434 1348ZM418 135H420Q488 135 529 193T571 352Q571 522 403 627Q338 585 300 515T262 365Q262 263 303 199T418 135ZM426 1196H424Q364 1196 330 1144T295 1014T333 883T440 788Q491 820 521 878T551 1004Q551 1090 520 1143T426 1196Z"
/>
<glyph unicode="9" glyph-name="nine" horiz-adv-x="835" d="M145 -16V168Q207 168 256 178Q358 204 424 270Q533 381 565 588H559Q482 492 358 492Q228 492 142 601T55 889Q55 1008 97 1111T226 1281T424 1348Q541 1348 623 1277T743 1085T782 807Q782 412 582
176Q522 104 439 57T262 -8Q221 -16 145 -16ZM412 1186H410Q351 1186 310 1114T270 907Q272 786 311 717T420 647Q460 647 496 672T551 737Q563 774 563 854Q563 1016 522 1101T412 1186Z" />
<glyph unicode=":" glyph-name="colon" horiz-adv-x="442" d="M233 692H231Q177 692 141 733T104 838Q104 899 141 941T233 983Q290 983 326 944T362 838Q362 773 327 733T233 692ZM233 -16H231Q177 -16 141 24T104 129Q104 190 141 232T233 274Q290 274 326 235T362
129Q362 64 327 24T233 -16Z" />
<glyph unicode=";" glyph-name="semicolon" horiz-adv-x="442" d="M166 -240L29 -256Q68 -144 104 1T158 258L381 279Q336 137 277 -8T166 -240ZM248 692H246Q192 692 156 733T119 838Q119 899 156 941T248 983Q305 983 341 944T377 838Q377 773 342 733T248 692Z" />
<glyph unicode="&lt;" glyph-name="less" horiz-adv-x="1220" d="M125 487V600L1094 1090V913L340 545V541L1094 174V0L125 487Z" />
<glyph unicode="=" glyph-name="equal" horiz-adv-x="1220" d="M1139 670H82V813H1139V670ZM1139 285H82V428H1139V285Z" />
<glyph unicode="&gt;" glyph-name="greater" horiz-adv-x="1220" d="M1096 621V469L127 0V172L928 543V547L127 918V1090L1096 621Z" />
<glyph unicode="?" glyph-name="question" horiz-adv-x="661" d="M383 408H195L190 440Q168 610 289 807Q328 870 346 902T378 980T393 1071Q393 1140 354 1177T246 1214Q164 1214 113 1178L74 1348Q105 1370 167 1387T297 1405Q367 1405 423 1387T514 1340T573
1271T606 1190T616 1104Q616 1083 613 1061T608 1021T597 980T584 944T566 905T549 871T528 835T508 802T486 767T465 735Q417 657 397 593T383 449V408ZM289 -16H287Q231 -16 195 24T158 125Q158 188 195 228T287 270Q345 270 381 230T418 125Q418 63 383 24T289
-16Z" />
<glyph unicode="@" glyph-name="at" horiz-adv-x="1243" d="M713 477L764 758Q749 768 711 768Q650 768 594 714T505 568T471 377Q471 318 491 286T547 254Q600 254 648 323T713 477ZM856 -45L885 -125Q743 -205 569 -205Q468 -205 379 -167T219 -55T109 135T68
399Q68 559 117 707T250 968T458 1147T723 1214Q834 1214 922 1174T1067 1063T1152 901T1182 702Q1182 431 1095 282T862 133Q793 133 758 176T725 303H719Q678 218 618 176T496 133Q416 133 370 194T324 369Q324 462 353 551T434 714T570 832T754 877Q855 877
924 840L848 446Q809 233 899 233Q971 233 1025 353T1079 670Q1079 882 986 1005T705 1128Q601 1128 504 1075T333 928T215 696T170 399Q170 148 285 17T596 -115Q732 -115 856 -45Z" />
<glyph unicode="A" glyph-name="A" horiz-adv-x="917" d="M590 358H315L242 0H29L336 1380H592L877 0H664L590 358ZM340 530H567L510 848Q490 947 459 1161H453Q414 913 401 846L340 530Z" />
<glyph unicode="B" glyph-name="B" horiz-adv-x="927" d="M121 4V1360Q241 1386 393 1386Q615 1386 721 1290Q819 1204 819 1044Q819 945 767 865T616 741V735Q733 703 798 612T864 395Q864 229 764 123Q646 -10 350 -10Q214 -10 121 4ZM338 1212V805H401Q487
805 545 866T604 1020Q604 1112 558 1166T416 1221Q361 1221 338 1212ZM338 641V166Q365 160 408 160Q511 160 575 221T639 397Q639 513 570 577T401 641H338Z" />
<glyph unicode="C" glyph-name="C" horiz-adv-x="788" d="M729 207L756 23Q688 -12 553 -12Q318 -12 188 169T57 672Q57 825 88 949T171 1155T292 1291T434 1369T584 1393Q705 1393 764 1358L723 1171Q667 1200 592 1200Q533 1200 481 1172T385 1086T315 925T289
686Q289 578 305 492T348 348T415 253T498 199T594 182Q660 182 729 207Z" />
<glyph unicode="D" glyph-name="D" horiz-adv-x="962" d="M121 4V1360Q223 1386 367 1386Q600 1386 723 1272Q905 1109 905 715Q905 304 727 129Q591 -10 322 -10Q207 -10 121 4ZM338 1204V174Q356 170 391 170Q439 170 480 186T558 242T622 343T664 499T680 717Q680
956 611 1083T401 1210Q365 1210 338 1204Z" />
<glyph unicode="E" glyph-name="E" horiz-adv-x="770" d="M668 811V629H340V190H713V0H121V1380H688V1190H340V811H668Z" />
<glyph unicode="F" glyph-name="F" horiz-adv-x="759" d="M121 0V1380H688V1190H340V778H666V596H340V0H121Z" />
<glyph unicode="G" glyph-name="G" horiz-adv-x="933" d="M848 752V37Q800 17 725 3T580 -12Q360 -12 229 123Q147 209 102 353T57 678Q58 828 90 950T176 1154T302 1290T452 1369T614 1393Q747 1393 827 1352L784 1163Q727 1196 627 1196Q572 1196 523 1180T430
1125T354 1028T304 879T285 676Q285 541 309 441T375 284T466 201T573 174Q625 174 645 184V571H498V752H848Z" />
<glyph unicode="H" glyph-name="H" horiz-adv-x="1007" d="M121 1380H340V809H668V1380H887V0H668V608H340V0H121V1380Z" />
<glyph unicode="I" glyph-name="I" horiz-adv-x="462" d="M121 1380H340V0H121V1380Z" />
<glyph unicode="J" glyph-name="J" horiz-adv-x="577" d="M254 410V1380H473V418Q473 330 461 261T424 146T368 67T295 17T210 -8T115 -16Q40 -16 -6 0L12 186Q41 176 94 176Q132 176 159 185T208 218T242 290T254 410Z" />
<glyph unicode="K" glyph-name="K" horiz-adv-x="888" d="M121 0V1380H338V743H344L418 918L635 1380H877L555 784L883 0H645L408 614L338 492V0H121Z" />
<glyph unicode="L" glyph-name="L" horiz-adv-x="745" d="M121 0V1380H340V184H709V0H121Z" />
<glyph unicode="M" glyph-name="M" horiz-adv-x="1269" d="M987 0L961 532Q943 836 946 1028H940Q900 802 844 578L700 16H551L416 563Q356 789 317 1028H311Q309 848 293 526L268 0H78L170 1380H401L535 821Q609 513 639 342H643Q674 536 739 821L868 1380H1104L1186
0H987Z" />
<glyph unicode="N" glyph-name="N" horiz-adv-x="1009" d="M313 0H121V1380H322L555 791Q673 489 717 354H721Q696 721 696 989V1380H889V0H688L453 588Q353 831 301 1026H297Q313 770 313 385V0Z" />
<glyph unicode="O" glyph-name="O" horiz-adv-x="952" d="M471 -16H469Q335 -16 241 74T102 322T57 692Q57 900 107 1058T256 1306T492 1397Q597 1397 676 1343T802 1192T872 974T895 709Q895 556 874 434T816 229T725 90T608 9T471 -16ZM479 174H481Q532 174
569 216T628 333T658 499T668 698Q668 799 659 884T630 1044T571 1163T479 1206Q427 1206 388 1163T327 1046T295 883T285 694Q284 588 294 498T327 333T388 217T479 174Z" />
<glyph unicode="P" glyph-name="P" horiz-adv-x="882" d="M121 0V1360Q233 1386 377 1386Q614 1386 723 1282Q834 1177 834 987Q834 799 731 680Q672 611 582 574T399 537Q358 537 338 539V0H121ZM338 1198V719Q354 715 391 715Q498 715 556 783T614 971Q614 1077
566 1142T414 1208Q368 1208 338 1198Z" />
<glyph unicode="Q" glyph-name="Q" horiz-adv-x="952" d="M944 -39L866 -209Q683 -132 528 -41Q482 -16 471 -16Q279 -16 168 167T57 692Q57 899 107 1057T256 1306T494 1397Q578 1397 646 1361T760 1262T836 1111T881 923T895 709Q895 445 838 284T676 70V61Q697
52 944 -39ZM481 174H483Q533 174 570 215T627 331T658 497T668 698Q668 802 659 888T629 1048T571 1164T481 1206Q430 1206 391 1164T329 1048T295 886T285 694Q284 586 294 496T327 331T388 216T481 174Z" />
<glyph unicode="R" glyph-name="R" horiz-adv-x="907" d="M121 0V1360Q231 1386 383 1386Q620 1386 725 1286Q829 1187 829 1006Q829 886 773 796T612 657V653Q685 627 725 558T788 362Q838 72 872 0H645Q611 83 575 336Q556 469 514 521T387 573H338V0H121ZM338
1206V741H395Q492 741 550 809T608 985Q608 1211 412 1214Q362 1214 338 1206Z" />
<glyph unicode="S" glyph-name="S" horiz-adv-x="776" d="M53 45L90 233Q129 210 189 194T303 178Q402 178 457 230T512 371Q512 448 469 503T332 623Q212 699 142 799T72 1008Q72 1175 179 1284T475 1393Q536 1393 592 1378T680 1343L641 1155Q568 1202 471 1202Q383
1202 335 1153T287 1034Q287 958 328 910T483 788Q727 628 727 393Q727 209 609 99T303 -12Q229 -12 158 5T53 45Z" />
<glyph unicode="T" glyph-name="T" horiz-adv-x="770" d="M274 0V1180H27V1380H741V1180H494V0H274Z" />
<glyph unicode="U" glyph-name="U" horiz-adv-x="985" d="M115 1380H334V471Q334 176 489 176Q567 176 608 243T649 471V1380H868V508Q868 246 770 115T489 -16Q115 -16 115 498V1380Z" />
<glyph unicode="V" glyph-name="V" horiz-adv-x="897" d="M567 0H328L16 1380H256L371 762Q377 725 391 646T414 514T434 391T453 260H459Q478 442 537 766L647 1380H885L567 0Z" />
<glyph unicode="W" glyph-name="W" horiz-adv-x="1368" d="M494 0H283L33 1380H260L348 778Q373 610 406 287H412Q418 348 428 418T446 528T470 660T492 780L604 1380H784L891 786Q943 507 965 287H969Q979 385 1030 782L1118 1380H1333L1079 0H856L752 549Q717
743 686 1004H682Q638 696 606 547L494 0Z" />
<glyph unicode="X" glyph-name="X" horiz-adv-x="819" d="M811 0H584L479 289Q428 442 401 532H395L324 285L229 0H10L279 705L20 1380H248L346 1096Q351 1082 418 874H422L487 1100L578 1380H797L532 700L811 0Z" />
<glyph unicode="Y" glyph-name="Y" horiz-adv-x="815" d="M514 0H295V553L-8 1380H223L330 1044Q381 887 416 741H420Q448 870 502 1051L598 1380H825L514 561V0Z" />
<glyph unicode="Z" glyph-name="Z" horiz-adv-x="765" d="M31 0V129L483 1186V1190H72V1380H729V1223L291 197V190H727V0H31Z" />
<glyph unicode="[" glyph-name="bracketleft" horiz-adv-x="524" d="M469 -229H125V1405H469V1262H293V-86H469V-229Z" />
<glyph unicode="\" glyph-name="backslash" horiz-adv-x="503" d="M522 -82H373L-18 1397H131L522 -82Z" />
<glyph unicode="]" glyph-name="bracketright" horiz-adv-x="524" d="M55 1405H399V-229H55V-86H229V1262H55V1405Z" />
<glyph unicode="^" glyph-name="asciicircum" horiz-adv-x="1220" d="M1112 375H940L614 1139H604L279 375H109L537 1331H684L1112 375Z" />
<glyph unicode="_" glyph-name="underscore" horiz-adv-x="1024" d="M0 -154H1024V-256H0V-154Z" />
<glyph unicode="`" glyph-name="grave" horiz-adv-x="614" d="M68 1405H270L418 1122H279L68 1405Z" />
<glyph unicode="a" glyph-name="a" horiz-adv-x="811" d="M709 625V227Q709 79 721 0H524L512 100H508Q429 -16 297 -16Q188 -16 117 66T45 279Q45 372 82 443T182 558T322 622T487 645V672Q487 848 338 848Q241 848 152 793L111 942Q155 970 229 992T385 1014Q478
1014 543 984T644 899T694 777T709 625ZM494 313V500Q463 499 436 496T373 479T313 446T271 388T254 301Q254 223 286 185T362 147Q406 147 440 176T487 262Q494 282 494 313Z" />
<glyph unicode="b" glyph-name="b" horiz-adv-x="870" d="M100 270V1417H317V889H322Q395 1014 530 1014Q661 1014 735 879T809 518Q809 263 720 124T494 -16Q425 -16 380 17T297 123H291L279 0H92Q100 148 100 270ZM317 635V354Q317 327 326 291Q345 220 376
192T442 164Q590 164 590 504Q590 651 553 740T440 829Q400 829 368 790T326 698Q317 658 317 635Z" />
<glyph unicode="c" glyph-name="c" horiz-adv-x="641" d="M602 190L625 20Q563 -12 457 -12Q275 -12 168 119T61 492Q61 720 178 866T492 1012Q579 1012 635 983L602 809Q541 831 496 831Q394 831 338 736T281 496Q281 342 338 255T496 168Q553 168 602 190Z" />
<glyph unicode="d" glyph-name="d" horiz-adv-x="870" d="M553 1417H770V270Q770 152 778 0H592L578 119H571Q546 62 490 23T365 -16Q222 -16 142 124T61 496Q61 623 87 724T157 887T257 981T375 1014Q498 1014 549 905H553V1417ZM553 352V616Q553 657 549 678Q543
741 511 785T430 829Q377 829 343 781T295 661T281 494Q281 342 319 253T426 164Q513 164 545 289Q553 310 553 352Z" />
<glyph unicode="e" glyph-name="e" horiz-adv-x="806" d="M743 440H276Q280 156 498 156Q595 156 676 190L709 35Q605 -12 459 -12Q267 -12 165 118T63 483Q63 726 167 870T434 1014Q586 1014 668 889T750 557Q750 478 743 440ZM276 596H547Q548 714 513 782T418
850Q374 850 341 810T294 715T276 596Z" />
<glyph unicode="f" glyph-name="f" horiz-adv-x="532" d="M360 0H141V840H10V997H141V1047Q141 1242 238 1343Q322 1434 459 1434Q537 1434 604 1411L575 1239Q540 1253 492 1253Q422 1253 391 1197T360 1051V997H537V840H360V0Z" />
<glyph unicode="g" glyph-name="g" horiz-adv-x="870" d="M772 684V119Q772 -52 746 -146T662 -301Q556 -410 365 -410Q231 -410 127 -362L172 -193Q260 -236 360 -236Q459 -236 507 -171T555 35V113H551Q525 61 476 33T367 4Q269 4 199 72T96 248T63 492Q63 618
90 719T163 884T267 980T389 1014Q511 1014 573 891H578L590 997H782Q772 860 772 684ZM555 367V643Q555 682 545 717Q513 829 434 829Q359 829 320 739T281 500Q281 343 322 261T430 178Q512 178 543 283Q555 314 555 367Z" />
<glyph unicode="h" glyph-name="h" horiz-adv-x="888" d="M100 0V1417H319V893H324Q355 942 410 977Q471 1014 543 1014Q662 1014 725 917T788 631V0H569V623Q569 829 455 829Q360 829 328 707Q319 664 319 631V0H100Z" />
<glyph unicode="i" glyph-name="i" horiz-adv-x="419" d="M319 0H100V997H319V0ZM207 1130H205Q156 1130 123 1165T90 1257Q90 1314 124 1349T207 1384Q259 1384 292 1350T326 1257Q326 1201 293 1166T207 1130Z" />
<glyph unicode="j" glyph-name="j" horiz-adv-x="425" d="M-49 -410L-70 -236Q25 -218 61 -172Q88 -137 98 -74T109 117V997H328V68Q328 -89 300 -177T209 -319Q161 -361 89 -384T-49 -410ZM217 1130H215Q167 1130 134 1166T100 1257Q100 1314 134 1349T219 1384Q271
1384 303 1350T336 1257Q336 1201 303 1166T217 1130Z" />
<glyph unicode="k" glyph-name="k" horiz-adv-x="790" d="M317 1417V549H322Q345 613 373 676L532 997H768L518 580L786 0H543L369 436L317 348V0H100V1417H317Z" />
<glyph unicode="l" glyph-name="l" horiz-adv-x="430" d="M100 0V1417H319V0H100Z" />
<glyph unicode="m" glyph-name="m" horiz-adv-x="1337" d="M100 0V717Q100 821 92 997H283L293 879H297Q335 939 395 976T530 1014Q688 1014 743 870H748Q785 935 846 977Q909 1014 985 1014Q1106 1014 1170 921T1235 645V0H1018V604Q1018 654 1014 691T998 762T963
813T905 831Q862 831 830 801T784 715Q776 687 776 635V0H559V639Q559 669 557 693T549 744T531 789T498 819T449 831Q407 831 373 800T326 711Q317 659 317 631V0H100Z" />
<glyph unicode="n" glyph-name="n" horiz-adv-x="888" d="M100 0V717Q100 821 92 997H283L293 881H297Q333 943 394 978T532 1014Q657 1014 722 921T788 653V0H569V633Q569 829 453 829Q411 829 378 798T330 707Q319 668 319 616V0H100Z" />
<glyph unicode="o" glyph-name="o" horiz-adv-x="839" d="M420 -16H418Q255 -16 158 117T61 496Q61 627 91 729T174 891T290 983T426 1014Q586 1014 682 879T778 502Q778 386 755 294T696 145T610 51T515 -1T420 -16ZM424 152H426Q465 152 492 184T533 270T553
380T559 500Q559 561 553 616T533 726T491 813T422 846Q380 846 351 814T307 726T287 617T281 500Q281 431 287 374T309 264T353 182T424 152Z" />
<glyph unicode="p" glyph-name="p" horiz-adv-x="870" d="M100 -393V684Q100 829 92 997H283L295 877H299Q368 1014 508 1014Q653 1014 731 874T809 502Q809 370 783 268T711 106T610 15T492 -16Q379 -16 322 88H317V-393H100ZM317 627V365Q317 321 328 281Q346
216 377 190T442 164Q495 164 529 212T577 332T590 498Q590 652 553 740T442 829Q402 829 369 791T326 700Q317 672 317 627Z" />
<glyph unicode="q" glyph-name="q" horiz-adv-x="870" d="M553 -393V94H547Q518 44 469 14T358 -16Q225 -16 144 121T63 481Q63 730 156 872T389 1014Q514 1014 573 889L578 885L588 997H778Q770 833 770 684V-393H553ZM553 360V629Q553 665 547 692Q538 751 505
790T432 829Q357 829 320 739T283 496Q283 344 320 254T430 164Q466 164 496 192T543 287Q553 315 553 360Z" />
<glyph unicode="r" glyph-name="r" horiz-adv-x="559" d="M100 0V717Q100 829 92 997H283L295 848H301Q330 923 386 968T504 1014Q523 1014 551 1010V793Q537 795 504 795Q445 795 395 749T328 623Q319 571 319 528V0H100Z" />
<glyph unicode="s" glyph-name="s" horiz-adv-x="630" d="M41 45L84 207Q162 154 256 154Q315 154 348 184T381 268Q381 315 355 350T260 430Q57 550 57 715Q57 845 142 929T362 1014Q464 1014 553 965L510 803Q440 846 373 846Q319 846 290 816T260 741Q260 701
284 672T379 596Q584 473 584 293Q584 146 493 67T254 -12Q194 -12 133 3T41 45Z" />
<glyph unicode="t" glyph-name="t" horiz-adv-x="585" d="M143 1169L362 1245V997H555V840H362V322Q362 168 465 168Q499 168 532 174L537 4Q484 -12 393 -12Q278 -12 217 49Q179 87 161 149T143 319V840H25V997H143V1169Z" />
<glyph unicode="u" glyph-name="u" horiz-adv-x="876" d="M772 997V291Q772 168 780 0H590L578 104H573Q541 54 482 19T350 -16Q216 -16 155 83T94 381V997H313V408Q313 291 338 229T428 166Q474 166 502 196T541 264Q553 298 553 350V997H772Z" />
<glyph unicode="v" glyph-name="v" horiz-adv-x="765" d="M16 997H248L346 500Q369 370 389 238H393Q404 315 434 500L530 997H748L483 0H285L16 997Z" />
<glyph unicode="w" glyph-name="w" horiz-adv-x="1216" d="M16 997H250L322 541Q355 318 365 231H371Q389 342 430 537L530 997H698L793 549Q830 373 852 231H856Q866 328 901 545L977 997H1194L940 0H756L664 408Q633 536 610 715H606Q592 599 547 406L449 0H260L16
997Z" />
<glyph unicode="x" glyph-name="x" horiz-adv-x="757" d="M20 997H258L332 803Q345 769 365 705T389 633H393Q424 733 449 803L522 997H743L512 506L743 0H506L426 205Q399 274 371 367H367Q352 316 311 203L238 0H16L246 498L20 997Z" />
<glyph unicode="y" glyph-name="y" horiz-adv-x="757" d="M16 997H250L362 455Q376 391 397 270H401Q411 333 434 453L532 997H748L561 285Q462 -118 328 -283Q276 -346 220 -385T123 -438L51 -250Q121 -219 188 -147Q240 -92 274 -8Q287 21 287 39T281 76L16 997Z" />
<glyph unicode="z" glyph-name="z" horiz-adv-x="684" d="M35 0V137L311 657Q322 678 355 733T399 813V817H70V997H639V850L367 342Q289 204 279 184V180H643V0H35Z" />
<glyph unicode="{" glyph-name="braceleft" horiz-adv-x="524" d="M37 522L39 657Q115 657 145 694T176 786Q176 857 162 950Q150 1066 150 1124Q150 1263 227 1334T436 1405H469V1266H438Q324 1253 324 1120Q324 1042 336 975Q344 881 344 840Q347 640 195 594V590Q347
544 344 340Q344 279 334 201T324 59Q324 -9 349 -46T440 -90H469V-229H434Q374 -229 325 -214T235 -168T173 -81T150 51Q150 125 164 225Q176 337 176 393Q176 446 145 484T37 522Z" />
<glyph unicode="|" glyph-name="bar" horiz-adv-x="430" d="M131 1536H299V-512H131V1536Z" />
<glyph unicode="}" glyph-name="braceright" horiz-adv-x="524" d="M487 657L485 522Q410 522 379 484T348 393Q348 337 360 225Q373 119 373 51Q373 -96 294 -162T88 -229H53V-90H82Q147 -83 173 -46T199 59Q199 116 190 201Q180 279 180 340Q179 448 216 507T330
590V594Q254 617 217 675T180 840Q180 897 190 975Q199 1056 199 1120Q199 1253 84 1266H53V1405H86Q218 1405 295 1334T373 1124Q373 1058 360 950Q348 844 348 786Q348 731 379 694T487 657Z" />
<glyph unicode="~" glyph-name="asciitilde" horiz-adv-x="1220" d="M274 430H131Q128 587 201 665T385 743Q444 743 506 720T653 647Q738 600 779 583T854 565Q946 565 946 729H1090Q1097 577 1036 496T858 414Q795 414 738 432T590 502Q503 553 457 573T373
594Q274 594 274 430Z" />
</font>
</defs>
</svg>
